请选择 进入手机版 | 继续访问电脑版
立即注册
 找回密码
 立即注册

QQ登录

只需一步,快速开始

用百度帐号登录

只需两步,快速登录



宝马200+

威尼斯200+

新葡京200+

奔驰宝马200+

太阳城200+

巴黎人200+

大奖200+

永利200+

新葡京200+

查看: 8578|回复: 376

[动作] 卧虎藏龙 Crouching Tiger Hidden Dragon II: The Green Destiny(4K)2016.2160p.Netflix.W

    [复制链接]
发表于 2016-3-9 22:49:05 | 显示全部楼层 |阅读模式


本帖最后由 PPPOP 于 2016-3-9 22:57 编辑



◎译  名 卧虎藏龙:青冥宝剑/卧虎藏龙2
◎片  名 Crouching Tiger Hidden Dragon II: The Green Destiny
◎年  代 2016
◎国  家 中国/美国
◎类  别 动作/冒险/剧情
◎语  言 英语
◎字  幕 英文...
◎IMDb评分 6.7/10 from 486 users
◎IMDb链接 http://www.imdb.com/title/tt2652118/
◎文件格式 x264 + DD5.1
◎视频尺寸 3840 x 1916
◎文件大小 1CD 29.71 GiB
◎片  长 1h 40mn  
◎导  演 袁和平 Woo-ping Yuen
◎主  演 甄子丹 Donnie Yen ...孟思昭/默狼 Meng Sizhao / Silent Wolf
      杨紫琼 Michelle Yeoh ...俞秀莲 Yu Shu Lien
      岑勇康 Harry Shum Jr ...魏方 Tiefang
      刘承羽 Natasha Liu Bordizzo ...雪瓶 Xueping
      贾森·斯科特·李 Jason Scott Lee ...戴阎王 Hades Dai
      原丽淇 Eugenia Yuan ...九幽女 Blind Enchantress
      吴青芸 Thanh Van Ngo ...断魂莺 Mantis (as Thanh Van Ngo)
      袁之正 Roger Yuan ...铁乌鸦 Iron Crow
      陈钰芸 Juju Chan ...Silver Dart Shi
      克里斯·彭 Chris Pang ...Flying Blade
      Woon Young Park ...Thunder Fist
      Darryl Quon ...Turtle Ma
      


◎简  介

  武当弃徒戴阎王为抢夺青冥古剑夜袭铁小贝勒府,俞秀莲重出江湖,携手旧友孟思朝保护宝剑。被蒙蔽的罗小虎助纣为虐,玉娇龙养女雪瓶暗助其与铁平父子相认,揭露真相。一场江湖混战,众人力擒戴阎王,保护宝剑周全。

花絮

.演员刘承羽是跆拳道黑带,本身就有功夫底子,但是她还是在开拍前用四周的时间进行武打训练 。

.本片在新西兰拍摄13周,北京拍摄4周,其中一个关键场景的拍摄超过70次,在新西兰拍摄中所用到的中国古董都是在国内对照原物一比一仿造,再海运至新西兰。

.在新西兰拍摄时,剧组遭遇火灾,两个片厂发生四级大火,把华丽布景和工作人员的粮食全部烧光 。当地ZF部门出动18辆消防车、60名消防员、花费数小时才将火扑灭。

.20多个国家的700多人参与了该片的拍摄,3吨道具,影片用时2年完成,剧本花7年改稿10次,原始素材长达1800分钟,剧照拍摄多达4个T,共计道具制作3400件,服装缝制1000件 。

.片中的冰湖是人工搭建的,冰冻湖面长达30米。

.筹拍阶段出品公司曾找过李安担任导演,但遭到李安婉拒,香港导演于仁泰也因担心无法超越经典而婉拒,最后袁和平“知难而上”,同意执导该片。

.杨紫琼坚持在开拍前进行武术训练,每天早上练功一小时,为拍摄做好充分准备。8制片人哈维·韦恩斯坦找到袁和平时,袁和平对剧本很“不满”,因为它过于西方化。

.早在1993年,袁和平就与甄子丹和杨紫琼合作过功夫片《咏春》。袁和平与甄子丹经常在片场切磋武艺,相谈甚欢。

.甄子丹此次是第一次用纯英文演古装片。




  • Crouching.Tiger.Hidden.Dragon.Sword.of.Destiny.2016.2160p.Netflix.WEBRip.DD5.1.x264-TrollUHD.mkv

  • Format : Matroska

  • Format version : Version 4 / Version 2

  • File size : 29.7 GiB

  • Duration : 1h 40mn

  • Overall bit rate : 42.3 Mbps

  • Encoded date : UTC 2016-03-02 04:27:24

  • Writing application : mkvmerge v8.3.0 ('Over the Horizon') 64bit

  • Writing library : libebml v1.3.1 + libmatroska v1.4.2


  • Video

  • ID : 1

  • Format : AVC

  • Format/Info : Advanced Video Codec

  • Format profile : [email protected]

  • Format settings, CABAC : Yes

  • Format settings, ReFrames : 5 frames

  • Codec ID : V_MPEG4/ISO/AVC

  • Duration : 1h 40mn

  • Bit rate : 41.7 Mbps

  • Width : 3 840 pixels

  • Height : 1 916 pixels

  • Display aspect ratio : 2.004

  • Frame rate mode : Constant

  • Frame rate : 23.976 (24000/1001) fps

  • Color space : YUV

  • Chroma subsampling : 4:2:0

  • Bit depth : 8 bits

  • Scan type : Progressive

  • Bits/(Pixel*Frame) : 0.236

  • Stream size : 29.3 GiB (98%)

  • Writing library : x264 core 148 r2638 7599210

  • Encoding settings : cabac=1 / ref=5 / deblock=1:-1:-1 / analyse=0x3:0x133 / me=umh / subme=10 / psy=1 / psy_rd=1.00:0.15 / mixed_ref=1 / me_range=48 / chroma_me=1 / trellis=2 / 8x8dct=1 / cqm=0 / deadzone=21,11 / fast_pskip=1 / chroma_qp_offset=-3 / threads=12 / lookahead_threads=2 / sliced_threads=0 / nr=0 / decimate=0 / interlaced=0 / bluray_compat=0 / constrained_intra=0 / bframes=8 / b_pyramid=2 / b_adapt=2 / b_bias=0 / direct=3 / weightb=1 / open_gop=0 / weightp=2 / keyint=240 / keyint_min=23 / scenecut=40 / intra_refresh=0 / rc_lookahead=60 / rc=crf / mbtree=1 / crf=17.0 / qcomp=0.70 / qpmin=0 / qpmax=69 / qpstep=4 / vbv_maxrate=300000 / vbv_bufsize=300000 / crf_max=0.0 / nal_hrd=none / filler=0 / ip_ratio=1.40 / aq=1:0.90

  • Default : Yes

  • Forced : No


  • Audio

  • ID : 2

  • Format : AC-3

  • Format/Info : Audio Coding 3

  • Mode extension : CM (complete main)

  • Format settings, Endianness : Big

  • Codec ID : A_AC3

  • Duration : 1h 40mn

  • Bit rate mode : Constant

  • Bit rate : 640 Kbps

  • Channel(s) : 6 channels

  • Channel positions : Front: L C R, Side: L R, LFE

  • Sampling rate : 48.0 KHz

  • Frame rate : 31.250 fps (1536 spf)

  • Compression mode : Lossy

  • Stream size : 460 MiB (2%)

  • Title : AC3 5.1

  • Language : English

  • Default : Yes

  • Forced : No


  • Text #1

  • ID : 3

  • Format : UTF-8

  • Codec ID : S_TEXT/UTF8

  • Codec ID/Info : UTF-8 Plain Text

  • Duration : 1h 28mn

  • Bit rate : 29 bps

  • Count of elements : 624

  • Stream size : 19.5 KiB (0%)

  • Title : English

  • Language : English

  • Default : No

  • Forced : No


  • Text #2

  • ID : 4

  • Format : UTF-8

  • Codec ID : S_TEXT/UTF8

  • Codec ID/Info : UTF-8 Plain Text

  • Duration : 1h 28mn

  • Bit rate : 34 bps

  • Count of elements : 789

  • Stream size : 22.4 KiB (0%)

  • Title : English (SDH)

  • Language : English

  • Default : No

  • Forced : No


  • Text #3

  • ID : 5

  • Format : UTF-8

  • Codec ID : S_TEXT/UTF8

  • Codec ID/Info : UTF-8 Plain Text

  • Duration : 1h 31mn

  • Bit rate : 27 bps

  • Count of elements : 493

  • Stream size : 18.6 KiB (0%)

  • Title : Dutch

  • Language : Dutch

  • Default : No

  • Forced : No


  • Text #4

  • ID : 6

  • Format : UTF-8

  • Codec ID : S_TEXT/UTF8

  • Codec ID/Info : UTF-8 Plain Text

  • Duration : 1h 31mn

  • Bit rate : 31 bps

  • Count of elements : 593

  • Stream size : 20.8 KiB (0%)

  • Title : French

  • Language : French

  • Default : No

  • Forced : No


  • Text #5

  • ID : 7

  • Format : UTF-8

  • Codec ID : S_TEXT/UTF8

  • Codec ID/Info : UTF-8 Plain Text

  • Duration : 1h 31mn

  • Bit rate : 31 bps

  • Count of elements : 588

  • Stream size : 20.9 KiB (0%)

  • Title : German

  • Language : German

  • Default : No

  • Forced : No


  • Text #6

  • ID : 8

  • Format : UTF-8

  • Codec ID : S_TEXT/UTF8

  • Codec ID/Info : UTF-8 Plain Text

  • Duration : 1h 31mn

  • Bit rate : 30 bps

  • Count of elements : 595

  • Stream size : 20.3 KiB (0%)

  • Title : Italian

  • Language : Italian

  • Default : No

  • Forced : No















游客,如果您要查看本帖隐藏内容请回复
发表于 2016-3-9 23:06:31 | 显示全部楼层
感谢分享,强烈支持!!!
发表于 2016-3-9 23:40:55 | 显示全部楼层
啥也不说了,感谢楼主分享哇!
发表于 2016-3-10 00:01:24 | 显示全部楼层
好片子!真给力!谢谢楼主分享
发表于 2016-3-10 00:10:05 | 显示全部楼层
花样百出花样百出花样百出苛苛
发表于 2016-3-10 00:21:46 | 显示全部楼层
我想看一看。
发表于 2016-3-10 01:13:07 | 显示全部楼层
文件这么小是不是4K啊。
发表于 2016-3-10 03:13:07 | 显示全部楼层
胜多负少dsd酸dsd酸dsd酸dsd酸dsd酸dsd酸dsd酸dsd酸dsd酸dsd酸dsd酸dsd酸dsd酸dsd酸dsd酸




发表于 2016-3-10 03:39:21 | 显示全部楼层
分割线啧啧啧啧啧啧啧啧啧啧啧啧
发表于 2016-3-10 05:08:45 | 显示全部楼层
啥也不说了,感谢楼主分享哇!
您需要登录后才可以回帖 登录 | 立即注册 用百度帐号登录

本版积分规则





广告招商QQ:1846343785|小黑屋|手机版|首发电视论坛

GMT+8, 2017-10-17 06:08 , Processed in 0.236742 second(s), 36 queries .

Powered by Discuz! X3.2

@ 2001-2013 Comsenz Inc.

快速回复 返回顶部 返回列表