请选择 进入手机版 | 继续访问电脑版
立即注册
 找回密码
 立即注册

QQ登录

只需一步,快速开始

用百度帐号登录

只需两步,快速登录

查看: 8286|回复: 263

[动作] [4K电影]特务型战The Man From U.N.C.L.E. 2015[2160P/MKV/34.6GB]

    [复制链接]
发表于 2016-2-12 01:19:41 | 显示全部楼层 |阅读模式
本帖最后由 klpoij89 于 2016-2-12 01:22 编辑

[4K电影]特务型战The Man From U.N.C.L.E. 2015[2160P/MKV/34.6GB]
The-Man-from-UNCLE-HK-2601752--o--.jpg The-Man-from-UNCLE-2601752--o--.jpg 译  名:特务型战(港)/绅士密令(台)/秘密特工

片  名:The Man From U.N.C.L.E.

年  代:2015

国  家:美国

类  别:喜剧/动作/冒险

语  言:英语/西班牙语

音   频:AC-3 5.1/DTS 5.1

视频尺寸:3840x2160

文件大小:34.6GiB

上映日期:2015-08-14(美国)/2015-08-13(香港)

IMDb评分:7.6/10 from 47,690 users

IMDb链接:http://www.imdb.com/title/tt1638355/

豆瓣评分:8.3/10 from 2,653 users

豆瓣链接:http://movie.douban.com/subject/6845667/

片  长:116分钟

导  演:盖·里奇 Guy Ritchie

主  演: 亨利·卡维尔 Henry Cavill

       艾米·汉莫 Armie Hammer

       艾丽西亚·维坎德 Alicia Vikander

       休·格兰特 Hugh Grant

       杰瑞德·哈里斯 Jared Harris

       伊丽莎白·德比茨基 Elizabeth Debicki

       大卫·贝克汉姆 David Beckha

       克里斯汀·伯克 Christian Berkel

       乔治·利昂·马丁内斯 Jorge Leon Martinez

       卢卡·卡尔瓦尼 Luca Calvani

       丹尼尔·韦斯特伍德 Daniel Westwood

简介:

        这部电影的背景设定在1960年代早期,正值冷战的高峰期,不过美国中情局探员索罗和苏联格別鸟探员库里亚金被迫暂时批开双方的长期敌对关系,联手执行一项共同任务,阻止神祕的国际犯罪组织试图透过扩散核子武器和科技,以暗中顛覆权力平衡的阴谋。这对拍档的唯一线索就是一名失踪德国科学家的女儿,而这名科学家正是渗透该犯罪组织的关键。他们必须跟时间赛跑,尽快找到关键的科学家以防止一场全球浩劫。

General
Unique ID : 230980439947214103891902996757323875152 (0xADC536EF1F2862C39997FBF6F30A8350)
Complete name : The Man From U.N.C.L.E.BD4K2160.2015.2160p.mkv
Format : Matroska
Format version : Version 4/Version 2
File size : 34.6GiB
Duration : 1h 56mn
Overall bit rate : 42.5 Mbps
Movie name : The Man From U.N.C.L.E.
Encoded date : UTC 2015-12-02 14:14:07
Writing application : mkvmerge v8.2.0 ('World of Adventure') 64bit
Writing library : libebml v1.3.1 + libmatroska v1.4.2

Video
ID : 1
Format : AVC
Format/Info : Advanced Video Codec
Format profile : [email protected]
Format settings, CABAC : Yes
Format settings, ReFrames : 4 frames
Codec ID : V_MPEG4/ISO/AVC
Duration : 1h 56mn
Bit rate : 40.6 Mbps
Width : 3840 pixels
Height : 2160 pixels
Display aspect ratio : 16:9
Frame rate mode : Constant
Frame rate : 23.976 fps (24000/1001)fps
Color space : YUV
Chroma subsampling : 4:2:0
Bit depth : 8 bits
Scan type : Progressive
Bits/(Pixel*Frame) : 0.204
Stream size : 33.0 GiB (95%)
Title : The Man From U.N.C.L.E.
Writing library : x264 core 144 r2525 40bb568
Encoding settings : cabac=1/ref=4/deblock=1:-3:-3/analyse=0x3:0x133/me=umh/subme=8/psy=1/ psy_rd=1.00:0.10/mixed_ref=0/me_range=24/chroma_me=1/trellis=2/8x8dct=1/cqm=0/ deadzone=21,11/fast_pskip=1/chroma_qp_offset=-3/threads=36
Default : Yes
Forced : No
Color range : Limited
Color primaries : BT.709
Transfer characteristics : BT.709
Matrix coefficients : BT.709

Audio #1
ID : 2
Format : AC-3
Format/Info : Audio Coding 3
Mode extension : CM (complete main)
Format settings, Endianness : Big
Codec ID : A_AC3
Duration : 1h 56mn
Bit rate mode : Constant  
Bit rate : 448 Kbps  
Channel(s) : 6 channels
Channel positions : Front: L C R, Side: L R, LFE
Sampling rate : 48.0 KHz
Frame rate : 31.250 fps (1536 spf)
Compression mode : Lossy
Delay relative to video : -83ms
Stream size : 373 MiB (1%)
Language : Spanish
Default : Yes
Forced : Yes

Audio #2
ID : 3
Format : DTS
Format/Info : Digital Theater Systems
Mode : 16
Format settings, Endianness : Big
Codec ID : A_DTS
Duration : 1h 56mn
Bit rate mode : Constant
Bit rate : 1510 Kbps
Channel(s) : 6 channels
Channel positions : Front: L C R, Side: L R, LFE
Sampling rate : 48.0 KHz
frame rate : 93.750 fps (512 spf)
Bit depth : 24 bits
Compression mode : Lossy
Delay relative to video : -61ms
Stream size : 1.23 GiB (4%)
Language : English
Default : No
Forced : No



The-Man-from-UNCLE-2606720--o--.jpg The-Man-from-UNCLE-2608553--o--.jpg The-Man-from-UNCLE-2606735--o--.jpg The-Man-from-UNCLE-2606736--o--.jpg The-Man-from-UNCLE-2607055--o--.jpg 影片开始播放时语言会自动选择西班牙语,请将声音切换到英语后再播放!建议各位用极速迅雷来高速下载!最高峰值12MB
BT种子文件百度云盘
游客,如果您要查看本帖隐藏内容请回复


发表于 2016-2-13 12:00:53 | 显示全部楼层
啥也不说了,感谢楼主分享哇!
发表于 2016-2-13 17:04:42 | 显示全部楼层
啥也不说了,感谢楼主分享哇!
发表于 2016-2-13 17:56:44 | 显示全部楼层
啥也不说了,感谢楼主分享哇!
发表于 2016-2-13 18:44:03 | 显示全部楼层
感谢楼主分享
发表于 2016-2-13 20:45:28 | 显示全部楼层
[4K电影]特务型战The Ma
发表于 2016-2-14 17:38:09 | 显示全部楼层
影片开始播放时语言会自动选择西班牙语,请将声音切换到英语后再播放!建议各位用极速迅雷来高速下载!最高峰值12MB
发表于 2016-2-14 20:55:32 | 显示全部楼层
啥也不说了,感谢楼主分享哇!
发表于 2016-2-15 15:14:09 | 显示全部楼层
好电影。你们也看一下。
您需要登录后才可以回帖 登录 | 立即注册 用百度帐号登录

本版积分规则

广告招商QQ:1846343785|小黑屋|手机版|首发电视论坛

GMT+8, 2019-3-24 19:36 , Processed in 0.199665 second(s), 38 queries .

Powered by Discuz! X3.2

@ 2001-2013 Comsenz Inc.

快速回复 返回顶部 返回列表